[MV] [Vietsub] Miss $ ft. Jung Seul Gi - What He Did Will Last In Me- Mediafire - Phiên bản có thể in
Diễn Đàn Tuổi Trẻ Việt Nam Uhm.VN
[MV] [Vietsub] Miss $ ft. Jung Seul Gi - What He Did Will Last In Me- Mediafire - Phiên bản có thể in

+- Diễn Đàn Tuổi Trẻ Việt Nam Uhm.VN (http://uhm.vn/forum)
+-- Diễn đàn: Diễn đàn Nhạc và Phim (http://uhm.vn/forum/forumdisplay.php?fid=7)
+--- Diễn đàn: MuSic For Life (http://uhm.vn/forum/forumdisplay.php?fid=50)
+---- Diễn đàn: Nhạc Quốc Tế (http://uhm.vn/forum/forumdisplay.php?fid=185)
+---- Chủ đề: [MV] [Vietsub] Miss $ ft. Jung Seul Gi - What He Did Will Last In Me- Mediafire (/showthread.php?tid=2780)



[MV] [Vietsub] Miss $ ft. Jung Seul Gi - What He Did Will Last In Me- Mediafire - Boss Spirit - 03-04-2011

[INDENT] [Image: vietsubmissftjungseulgiwhathedidwilllast...truyen.jpg]

[Image: info.png]


Trích dẫn:Format : Matroska
File size : 90.7 MiB
Duration : 4mn 13s
Overall bit rate : 2 999 Kbps
Encoded date : UTC 2011-02-25 07[Image: 08.gif]59
Writing application : mkvmerge v4.4.0 ('Die Wiederkehr') built on Oct 31 2010 21:52:48
Writing library : libebml v1.0.0 + libmatroska v1.0.0

Video
ID : 1
Format : AVC
Format/Info : Advanced Video Codec
Format profile : High@L3.1
Format settings, CABAC : Yes
Format settings, ReFrames : 4 frames
Codec ID : V_MPEG4/ISO/AVC
Duration : 4mn 13s
Bit rate : 2 551 Kbps
Width : 1 280 pixels
Height : 720 pixels
Display aspect ratio : 16:9
Frame rate : 30.000 fps
Color space : YUV
Chroma subsampling : 4:2:0
Bit depth : 8 bits
Scan type : Progressive
Bits/(Pixel*Frame) : 0.092
Stream size : 75.3 MiB (83%)
Writing library : x264 core 113 r1884 7313bb5
Audio
ID : 2
Format : AC-3
Format/Info : Audio Coding 3
Mode extension : CM (complete main)
Codec ID : A_AC3
Duration : 4mn 13s
Bit rate mode : Constant
Bit rate : 448 Kbps
Channel(s) : 2 channels
Channel positions : Front: L R
Sampling rate : 44.1 KHz
Bit depth : 16 bits
Compression mode : Lossy
Stream size : 13.5 MiB (15%)


[Image: link.gif]
[Image: down.png]
Trích dẫn: http://www.mediafire.com/?b7eaajj1v0d03n6


Pass unrar: truyenky.vn
[/INDENT]