[MV] Endless.Love-Thành Long-Nhạc Phim Thần Thoại- Mediafire - Phiên bản có thể in
Diễn đàn tuổi trẻ Uhm Vietnam
[MV] Endless.Love-Thành Long-Nhạc Phim Thần Thoại- Mediafire - Phiên bản có thể in

+- Diễn đàn tuổi trẻ Uhm Vietnam (http://uhm.vn/forum)
+-- Diễn đàn: Diễn đàn Nhạc và Phim (http://uhm.vn/forum/forumdisplay.php?fid=7)
+--- Diễn đàn: MuSic For Life (http://uhm.vn/forum/forumdisplay.php?fid=50)
+---- Diễn đàn: Nhạc Quốc Tế (http://uhm.vn/forum/forumdisplay.php?fid=185)
+---- Chủ đề: [MV] Endless.Love-Thành Long-Nhạc Phim Thần Thoại- Mediafire (/showthread.php?tid=2820)



[MV] Endless.Love-Thành Long-Nhạc Phim Thần Thoại- Mediafire - Boss Spirit - 03-05-2011

[INDENT] [Image: endlesslovemkvthumbs20110305121957.jpg]

[Image: info.png]

Trích dẫn:Format : Matroska
File size : 212 MiB
Duration : 4mn 46s
Overall bit rate : 6 192 Kbps
Encoded date : UTC 2008-09-30 07:03:03
Writing application : mkvmerge v2.2.0 ('Turn It On Again') built on Mar 4 2008 12:58:26
Writing library : libebml v0.7.7 + libmatroska v0.8.1

Video
ID : 1
Format : AVC
Format/Info : Advanced Video Codec
Format profile : High@L5.1
Format settings, CABAC : Yes
Format settings, ReFrames : 8 frames
Codec ID : V_MPEG4/ISO/AVC
Duration : 4mn 46s
Bit rate : 5 877 Kbps
Nominal bit rate : 5 452 Kbps
Width : 1 280 pixels
Height : 544 pixels
Display aspect ratio : 2.35:1
Frame rate : 23.976 fps
Color space : YUV
Chroma subsampling : 4:2:0
Bit depth : 8 bits
Scan type : Progressive
Bits/(Pixel*Frame) : 0.352
Stream size : 201 MiB (95%)
Audio
ID : 2
Format : AC-3
Format/Info : Audio Coding 3
Mode extension : CM (complete main)
Codec ID : A_AC3
Duration : 4mn 46s
Bit rate mode : Constant
Bit rate : 192 Kbps
Channel(s) : 2 channels
Channel positions : Front: L R
Sampling rate : 48.0 KHz
Bit depth : 16 bits
Compression mode : Lossy
Stream size : 6.57 MiB (3%)
Language : Chinese


[/INDENT]