[MV] Why (Keep Your Head Down) (Dance Version A ) [HD] - Mediafire

Đánh giá chủ đề:
  • 0 Vote(s) - Trung bình 0
  • 1
  • 2
  • 3
  • 4
  • 5
[MV] Why (Keep Your Head Down) (Dance Version A ) [HD] - Mediafire
#1
[INDENT]
[Image: truyenkyvntvxqwhykeepyo.jpg]

[Image: info.png]

Trích dẫn:Format : MPEG-4
Format profile : Base Media / Version 2
Codec ID : mp42
File size : 83.8 MiB
Duration : 3mn 58s
Overall bit rate : 2 944 Kbps
Encoded date : UTC 2011-01-31 02:49:22
Tagged date : UTC 2011-01-31 02:49:22
gsst : 0
gstd : 238818
gssd : B4A7DA843HH1296548064194920
gshh : v3.lscache8.c.youtube.com

Video
ID : 1
Format : AVC
Format/Info : Advanced Video Codec
Format profile : High@L3.1
Format settings, CABAC : Yes
Format settings, ReFrames : 1 frame
Codec ID : avc1
Codec ID/Info : Advanced Video Coding
Duration : 3mn 58s
Bit rate mode : Variable
Bit rate : 2 810 Kbps
Maximum bit rate : 4 186 Kbps
Width : 1 280 pixels
Height : 720 pixels
Display aspect ratio : 16:9
Frame rate mode : Variable
Frame rate : 23.976 fps
Minimum frame rate : 17.241 fps
Maximum frame rate : 24.390 fps
Color space : YUV
Chroma subsampling : 4:2:0
Bit depth : 8 bits
Scan type : Progressive
Bits/(Pixel*Frame) : 0.127
Stream size : 80.0 MiB (95%)
Tagged date : UTC 2011-01-31 02:49:26

Audio
ID : 2
Format : AAC
Format/Info : Advanced Audio Codec
Format profile : LC
Codec ID : 40
Duration : 3mn 58s
Bit rate mode : Variable
Bit rate : 128 Kbps
Maximum bit rate : 147 Kbps
Channel(s) : 2 channels
Channel positions : Front: L R
Sampling rate : 44.1 KHz
Compression mode : Lossy
Stream size : 3.64 MiB (4%)
Title : © 2007 Google Inc. v08.13.2007.
Encoded date : UTC 2011-01-31 02:49:25
Tagged date : UTC 2011-01-31 02:49:26


[Image: j5w844jpg.gif]
[Image: downb.png]
[/INDENT]

Trả lời


Bookmarks

Đi tới chuyên mục:


Thành viên đang xem chủ đề: 1 Khách