[MV] BEAST__Beautiful (Melon HD) - Mediafire

Đánh giá chủ đề:
  • 0 Vote(s) - Trung bình 0
  • 1
  • 2
  • 3
  • 4
  • 5
[MV] BEAST__Beautiful (Melon HD) - Mediafire
#1
[INDENT] [Image: beastbeautifulmelonhdupbyhoangtuyentruye...022816.jpg]

[Image: info.png]


Trích dẫn:

Format : MPEG-4
Format profile : Base Media / Version 2
Codec ID : mp42
File size : 424 MiB
Duration : 7mn 14s
Overall bit rate : 8 180 Kbps
Encoded date : UTC 2010-11-16 09[Image: 04.gif]33
Tagged date : UTC 2010-11-16 09[Image: 04.gif]33
Writing library : Apple QuickTime

Video
ID : 1
Format : AVC
Format/Info : Advanced Video Codec
Format profile : Main@L3.1
Format settings, CABAC : No
Format settings, ReFrames : 6 frames
Codec ID : avc1
Codec ID/Info : Advanced Video Coding
Duration : 7mn 14s
Bit rate mode : Variable
Bit rate : 7 984 Kbps
Maximum bit rate : 8 001 Kbps
Width : 1 280 pixels
Height : 720 pixels
Display aspect ratio : 16:9
Frame rate mode : Constant
Frame rate : 29.970 fps
Standard : Component
Color space : YUV
Chroma subsampling : 4:2:0
Bit depth : 8 bits
Scan type : Progressive
Bits/(Pixel*Frame) : 0.289
Stream size : 414 MiB (98%)
Language : English
Encoded date : UTC 2010-11-16 09[Image: 04.gif]33
Tagged date : UTC 2010-11-16 09[Image: 04.gif]33

Audio
ID : 2
Format : AAC
Format/Info : Advanced Audio Codec
Format profile : LC
Codec ID : 40
Duration : 7mn 13s
Bit rate mode : Variable
Bit rate : 192 Kbps
Maximum bit rate : 201 Kbps
Channel(s) : 2 channels
Channel positions : Front: L R
Sampling rate : 48.0 KHz
Compression mode : Lossy
Stream size : 9.92 MiB (2%)
Language : English
Encoded date : UTC 2010-11-16 09[Image: 04.gif]33
Tagged date : UTC 2010-11-16 09[Image: 04.gif]33



[/INDENT]

Trả lời


Bookmarks

Đi tới chuyên mục:


Thành viên đang xem chủ đề: 1 Khách