[MV HD] TeenTop__Supa Luv- Mediafire

Đánh giá chủ đề:
  • 0 Vote(s) - Trung bình 0
  • 1
  • 2
  • 3
  • 4
  • 5
[MV HD] TeenTop__Supa Luv- Mediafire
#1
[INDENT] [Image: teentopsupaluvupbyhoangtuyentruyenkyvnav...163457.jpg]

[Image: info.png]


Trích dẫn:Format : AVI
Format/Info : Audio Video Interleave
File size : 242 MiB
Duration : 3mn 17s
Overall bit rate : 10.3 Mbps
Writing application : GOM ENCODER (GAviWriter 1.0)

Video
ID : 0
Format : AVC
Format/Info : Advanced Video Codec
Format profile : Main@L4.1
Format settings, CABAC : Yes
Format settings, ReFrames : 1 frame
Codec ID : H264
Duration : 12s 500ms
Bit rate : 10 000 Kbps
Width : 1 920 pixels
Height : 1 080 pixels
Display aspect ratio : 16:9
Frame rate : 24.000 fps
Color space : YUV
Chroma subsampling : 4:2:0
Bit depth : 8 bits
Scan type : Progressive
Bits/(Pixel*Frame) : 0.201
Stream size : 234 MiB (97%)
Writing library : x264 core 127439188
Encoding settings : cabac=1 / ref=1 / deblock=1:0:0 / analyse=0x1:0x111 / me=hex / subme=5 / brdo=0 / mixed_ref=0 / me_range=16 / chroma_me=1 / trellis=0 / 8x8dct=0 / cqm=0 / deadzone=21,11 / chroma_qp_offset=0 / slices=4 / nr=0 / decimate=1 / mbaff=0 / bframes=0 / keyint=24 / keyint_min=1 / scenecut=40 / rc=abr / bitrate=10000 / ratetol=1.0 / rceq='blurCplx^(1-qComp)' / qcomp=0.50 / qpmin=10 / qpmax=40 / qpstep=4 / ip_ratio=1.40

Audio
ID : 1
Format : MPEG Audio
Format version : Version 1
Format profile : Layer 3
Mode : Joint stereo
Mode extension : MS Stereo
Codec ID : 55
Codec ID/Hint : MP3
Duration : 3mn 17s
Bit rate mode : Constant
Bit rate : 320 Kbps
Channel(s) : 2 channels
Sampling rate : 44.1 KHz
Compression mode : Lossy
Stream size : 7.55 MiB (3%)
Alignment : Aligned on interleaves
Interleave, duration : 26 ms (0.63 video frame)
Interleave, preload duration : 52 ms
Writing library : LAME3.97 (beta)


[/INDENT]

Trả lời


Bookmarks

Đi tới chuyên mục:


Thành viên đang xem chủ đề: 1 Khách