[MV HD] Tellu_-_MBLAQ_-_Stay- Mediafire

Đánh giá chủ đề:
  • 0 Vote(s) - Trung bình 0
  • 1
  • 2
  • 3
  • 4
  • 5
[MV HD] Tellu_-_MBLAQ_-_Stay- Mediafire
#1
[INDENT] [Image: tellumblaqstayupbyhoangtuyentruyenkyvnmp...164209.jpg]

[Image: info.png]


Trích dẫn:Format : MPEG-4
Format profile : Base Media / Version 2
Codec ID : mp42
File size : 259 MiB
Duration : 3mn 31s
Overall bit rate : 10.3 Mbps
Encoded date : UTC 2011-01-12 01:55:21
Tagged date : UTC 2011-01-12 01:55:21
Writing library : Apple QuickTime

Video
ID : 1
Format : AVC
Format/Info : Advanced Video Codec
Format profile : Main@L5.0
Format settings, CABAC : No
Format settings, ReFrames : 6 frames
Codec ID : avc1
Codec ID/Info : Advanced Video Coding
Duration : 3mn 31s
Bit rate mode : Variable
Bit rate : 9 952 Kbps
Maximum bit rate : 10.0 Mbps
Width : 1 920 pixels
Height : 1 080 pixels
Display aspect ratio : 16:9
Frame rate mode : Constant
Frame rate : 29.970 fps
Standard : Component
Color space : YUV
Chroma subsampling : 4:2:0
Bit depth : 8 bits
Scan type : Progressive
Bits/(Pixel*Frame) : 0.160
Stream size : 251 MiB (97%)
Language : English
Encoded date : UTC 2011-01-12 01:55:21
Tagged date : UTC 2011-01-12 01:55:21

Audio
ID : 2
Format : AAC
Format/Info : Advanced Audio Codec
Format profile : LC
Codec ID : 40
Duration : 3mn 30s
Bit rate mode : Variable
Bit rate : 320 Kbps
Maximum bit rate : 336 Kbps
Channel(s) : 2 channels
Channel positions : Front: L R
Sampling rate : 48.0 KHz
Compression mode : Lossy
Stream size : 8.04 MiB (3%)
Language : English
Encoded date : UTC 2011-01-12 01:55:21
Tagged date : UTC 2011-01-12 01:55:21


[/INDENT]

Trả lời


Bookmarks

Đi tới chuyên mục:


Thành viên đang xem chủ đề: 1 Khách