[MV] 2NE1 - I Don_t Care_ Fire & Dance Break- Mediafire

Đánh giá chủ đề:
  • 0 Vote(s) - Trung bình 0
  • 1
  • 2
  • 3
  • 4
  • 5
[MV] 2NE1 - I Don_t Care_ Fire & Dance Break- Mediafire
#1
[INDENT] [Image: 2ne1idontcarefiredancebreakmkvthumbs20110305121429.jpg]

[Image: info.png]

Format : Matroska
File size : 219 MiB
Duration : 10mn 36s
Overall bit rate : 2 883 Kbps
Movie name : 2NE1 - I Don't Care + Fire + Dance Break [28 08 09]
Encoded date : UTC 2009-09-01 04:40:36
Writing application : mkvmerge v2.9.0 ('Moanin'') built on May 22 2009 17:46:31
Writing library : libebml v0.7.7 + libmatroska v0.8.1

Video
ID : 1
Format : AVC
Format/Info : Advanced Video Codec
Format profile : High@L5.1
Format settings, CABAC : Yes
Format settings, ReFrames : 8 frames
Codec ID : V_MPEG4/ISO/AVC
Duration : 10mn 36s
Bit rate mode : Variable
Bit rate : 2 500 Kbps
Maximum bit rate : 25.0 Mbps
Width : 720 pixels
Height : 540 pixels
Display aspect ratio : 4:3
Frame rate : 59.940 fps
Color space : YUV
Chroma subsampling : 4:2:0
Bit depth : 8 bits
Scan type : Progressive
Bits/(Pixel*Frame) : 0.107
Stream size : 185 MiB (85%)

Audio
ID : 2
Format : AC-3
Format/Info : Audio Coding 3
Mode extension : CM (complete main)
Codec ID : A_AC3
Duration : 10mn 36s
Bit rate mode : Constant
Bit rate : 384 Kbps
Channel(s) : 6 channels
Channel positions : Front: L C R, Side: L R, LFE
Sampling rate : 48.0 KHz
Bit depth : 16 bits
Compression mode : Lossy
Stream size : 29.2 MiB (13%)
[/INDENT]
Trả lời


Bookmarks

Đi tới chuyên mục:


Thành viên đang xem chủ đề: 1 Khách