[MV] Moi Lolita - Alizee - Mediafire

Đánh giá chủ đề:
  • 0 Vote(s) - Trung bình 0
  • 1
  • 2
  • 3
  • 4
  • 5
[MV] Moi Lolita - Alizee - Mediafire
#1
[INDENT] [Image: moilolitaalizeetsthumbs20110305122406.jpg]

[Image: info.png]


Trích dẫn:Format : MPEG-TS
File size : 276 MiB
Duration : 3mn 20s
Overall bit rate : 11.6 Mbps

Video
ID : 1048 (0x418)
Menu ID : 1 (0x1)
Format : AVC
Format/Info : Advanced Video Codec
Format profile : Main@L4.0
Format settings, CABAC : Yes
Format settings, ReFrames : 2 frames
Format settings, GOP : M=3, N=15
Codec ID : 27
Duration : 3mn 20s
Bit rate : 10.8 Mbps
Width : 1 920 pixels
Height : 1 080 pixels
Display aspect ratio : 16:9
Frame rate : 25.000 fps
Color space : YUV
Chroma subsampling : 4:2:0
Bit depth : 8 bits
Scan type : MBAFF
Bits/(Pixel*Frame) : 0.209
Stream size : 258 MiB (93%)
Color primaries : BT.709-5, BT.1361, IEC 61966-2-4, SMPTE RP177
Transfer characteristics : BT.709-5, BT.1361
Matrix coefficients : BT.709-5, BT.1361, IEC 61966-2-4 709, SMPTE RP177

Audio
ID : 1049 (0x419)
Menu ID : 1 (0x1)
Format : MPEG Audio
Format version : Version 1
Format profile : Layer 2
Codec ID : 3
Duration : 3mn 20s
Bit rate mode : Constant
Bit rate : 192 Kbps
Channel(s) : 2 channels
Sampling rate : 48.0 KHz
Compression mode : Lossy
Stream size : 4.58 MiB (2%)
Language : French

Text #1
ID : 1052 (0x41C)-888
Menu ID : 1 (0x1)
Format : Teletext Subtitle
Language : French

Text #2
ID : 1052 (0x41C)-889
Menu ID : 1 (0x1)
Format : Teletext Subtitle
Language : English


[/INDENT]

Trả lời


Bookmarks

Đi tới chuyên mục:


Thành viên đang xem chủ đề: 1 Khách