[MV] [Vietsub] IU - The Story Only I Didn_t Know (LIP Ver.)- Mediafire

Đánh giá chủ đề:
  • 0 Vote(s) - Trung bình 0
  • 1
  • 2
  • 3
  • 4
  • 5
[MV] [Vietsub] IU - The Story Only I Didn_t Know (LIP Ver.)- Mediafire
#1
[INDENT] [Image: vietsubiuthestoryonlyididntknowlipverupb...yvnavi.jpg]

[Image: info.png]

Trích dẫn:Format : AVI
Format/Info : Audio Video Interleave
File size : 111 MiB
Duration : 3mn 26s
Overall bit rate : 4 494 Kbps
Writing application : Lavf51.12.1
Writing library : VirtualDub build 30009/release

Video
ID : 0
Format : MPEG-4 Visual
Format profile : Advanced Simple@L5
Format settings, BVOP : 2
Format settings, QPel : No
Format settings, GMC : No warppoints
Format settings, Matrix : Default (H.263)
Muxing mode : Packed bitstream
Codec ID : XVID
Codec ID/Hint : XviD
Duration : 3mn 26s
Bit rate : 4 225 Kbps
Width : 1 280 pixels
Height : 720 pixels
Display aspect ratio : 16:9
Frame rate : 29.970 fps
Color space : YUV
Chroma subsampling : 4:2:0
Bit depth : 8 bits
Scan type : Progressive
Compression mode : Lossy
Bits/(Pixel*Frame) : 0.153
Stream size : 104 MiB (94%)
Writing library : XviD 1.2.1 (UTC 2008-12-04)

Audio
ID : 1
Format : MPEG Audio
Format version : Version 1
Format profile : Layer 3
Mode : Joint stereo
Codec ID : 55
Codec ID/Hint : MP3
Duration : 3mn 26s
Bit rate mode : Constant
Bit rate : 256 Kbps
Channel(s) : 2 channels
Sampling rate : 44.1 KHz
Compression mode : Lossy
Stream size : 6.31 MiB (6%)
Alignment : Aligned on interleaves
Interleave, duration : 26 ms (0.78 video frame)
Interleave, preload duration : 522 ms
Writing library : LAME3.97


[Image: link.gif]
[Image: down.png]
Trích dẫn: http://www.mediafire.com/?94jofkgnlan010x


Pass unrar: truyenky.vn
[/INDENT]

Trả lời


Bookmarks

Đi tới chuyên mục:


Thành viên đang xem chủ đề: 1 Khách