[MV] KARA - Jet Coaster Love- Mediafire

Đánh giá chủ đề:
  • 0 Vote(s) - Trung bình 0
  • 1
  • 2
  • 3
  • 4
  • 5
[MV] KARA - Jet Coaster Love- Mediafire
#1
[INDENT] [Image: vmcripkarajetcoasterloveupbyhoangtuyentr...011030.jpg]


[Image: info.png]
Format : MPEG-4
Format profile : Base Media
Codec ID : isom
File size : 135 MiB
Duration : 3mn 38s
Overall bit rate : 5 184 Kbps
Encoded date : UTC 2011-03-02 15:46:42
Tagged date : UTC 2011-03-02 15:46:42

Video
ID : 1
Format : AVC
Format/Info : Advanced Video Codec
Format profile : High@L3.1
Format settings, CABAC : Yes
Format settings, ReFrames : 4 frames
Codec ID : avc1
Codec ID/Info : Advanced Video Coding
Duration : 3mn 38s
Bit rate mode : Variable
Bit rate : 4 989 Kbps
Maximum bit rate : 12.5 Mbps
Width : 1 280 pixels
Height : 720 pixels
Display aspect ratio : 16:9
Frame rate mode : Constant
Frame rate : 29.970 fps
Color space : YUV
Chroma subsampling : 4:2:0
Bit depth : 8 bits
Scan type : Progressive
Bits/(Pixel*Frame) : 0.181
Stream size : 130 MiB (96%)

Audio
ID : 2
Format : AAC
Format/Info : Advanced Audio Codec
Format profile : LC
Codec ID : 40
Duration : 3mn 38s
Bit rate mode : Variable
Bit rate : 192 Kbps
Maximum bit rate : 231 Kbps
Channel(s) : 2 channels
Channel positions : Front: L R
Sampling rate : 48.0 KHz
Compression mode : Lossy
Stream size : 5.01 MiB (4%)
Encoded date : UTC 2011-03-03 15:45:44
Tagged date : UTC 2011-03-02 15:46:44

[Image: link.gif]
[Image: down.png]

Trích dẫn:

Pass unrar: truyenky.vn
[/INDENT]

Trả lời


Bookmarks

Đi tới chuyên mục:


Thành viên đang xem chủ đề: 1 Khách