[Karaoke HD] Ngày Em Đi - Trịnh Thăng Bình--Mediafire



  • 0 Vote(s) - Trung bình 0
  • 1
  • 2
  • 3
  • 4
  • 5
[Karaoke HD] Ngày Em Đi - Trịnh Thăng Bình--Mediafire
#1
[INDENT] [Image: karaokehdcanhchimhaiutimupbyhoangtuyentr...011030.jpg]

[Image: info.png]

Trích dẫn:

Format : MPEG-4
Format profile : Base Media / Version 2
Codec ID : mp42
File size : 134 MiB
Duration : 4mn 35s
Overall bit rate : 4 086 Kbps
Encoded date : UTC 2011-02-10 09:24:08
Tagged date : UTC 2011-02-10 09:24:08
gsst : 0
gstd : 275720
gssd : B4A7DD1A2HH1299433931553387
gshh : v2.cache6.c.youtube.com

Video
ID : 1
Format : AVC
Format/Info : Advanced Video Codec
Format profile : High@L4.0
Format settings, CABAC : Yes
Format settings, ReFrames : 1 frame
Codec ID : avc1
Codec ID/Info : Advanced Video Coding
Duration : 4mn 35s
Bit rate mode : Variable
Bit rate : 3 954 Kbps
Maximum bit rate : 9 759 Kbps
Width : 1 920 pixels
Height : 1 080 pixels
Display aspect ratio : 16:9
Frame rate mode : Constant
Frame rate : 25.000 fps
Color space : YUV
Chroma subsampling : 4:2:0
Bit depth : 8 bits
Scan type : Progressive
Bits/(Pixel*Frame) : 0.076
Stream size : 130 MiB (97%)
Tagged date : UTC 2011-02-10 09:24:14

Audio
ID : 2
Format : AAC
Format/Info : Advanced Audio Codec
Format profile : LC
Codec ID : 40
Duration : 4mn 35s
Bit rate mode : Variable
Bit rate : 128 Kbps
Maximum bit rate : 192 Kbps
Channel(s) : 2 channels
Channel positions : Front: L R
Sampling rate : 44.1 KHz
Compression mode : Lossy
Stream size : 4.20 MiB (3%)
Title : © 2007 Google Inc. v08.13.2007.
Encoded date : UTC 2011-02-10 09:24:11
Tagged date : UTC 2011-02-10 09:24:14



[/INDENT]

  Trả lời


Đi tới chuyên mục:


Thành viên đang xem chủ đề: 1 Khách