[Karaoke HD] Chờ - Trương Thế Vinh-Mediafire



  • 0 Vote(s) - Trung bình 0
  • 1
  • 2
  • 3
  • 4
  • 5
[Karaoke HD] Chờ - Trương Thế Vinh-Mediafire
#1
[INDENT] [Image: karaokehdchotruongthevinhupbyhoangtuyent...201103.jpg]

[Image: info.png]

Trích dẫn:Format : MPEG-4
Format profile : Base Media / Version 2
Codec ID : mp42
File size : 47.5 MiB
Duration : 3mn 40s
Overall bit rate : 1 803 Kbps
Encoded date : UTC 2011-02-17 08:37:34
Tagged date : UTC 2011-02-17 08:37:34
gsst : 0
gstd : 220856
gssd : B4A7DD1E5HH1299433942179237
gshh : v5.cache8.c.youtube.com

Video
ID : 1
Format : AVC
Format/Info : Advanced Video Codec
Format profile : High@L3.1
Format settings, CABAC : Yes
Format settings, ReFrames : 1 frame
Codec ID : avc1
Codec ID/Info : Advanced Video Coding
Duration : 3mn 40s
Bit rate mode : Variable
Bit rate : 1 671 Kbps
Maximum bit rate : 3 553 Kbps
Width : 1 280 pixels
Height : 720 pixels
Display aspect ratio : 16:9
Frame rate mode : Variable
Frame rate : 29.970 fps
Minimum frame rate : 29.412 fps
Maximum frame rate : 32.258 fps
Color space : YUV
Chroma subsampling : 4:2:0
Bit depth : 8 bits
Scan type : Progressive
Bits/(Pixel*Frame) : 0.060
Stream size : 44.0 MiB (93%)
Tagged date : UTC 2011-02-17 08:37:43

Audio
ID : 2
Format : AAC
Format/Info : Advanced Audio Codec
Format profile : LC
Codec ID : 40
Duration : 3mn 40s
Bit rate mode : Variable
Bit rate : 126 Kbps
Maximum bit rate : 208 Kbps
Channel(s) : 2 channels
Channel positions : Front: L R
Sampling rate : 44.1 KHz
Compression mode : Lossy
Stream size : 3.31 MiB (7%)
Title : © 2007 Google Inc. v08.13.2007.
Encoded date : UTC 2011-02-17 08:37:38
Tagged date : UTC 2011-02-17 08:37:43
[Image: link.gif]
[Image: down.png]
Trích dẫn:http://www.mediafire.com/?oc3pipy3uwkwcrs

Pass unrar: truyenky.vn [/INDENT]
  Trả lời


Đi tới chuyên mục:


Thành viên đang xem chủ đề: 1 Khách