[MV] Mùa Gió Rét - Akira Phan--Mediafire



  • 0 Vote(s) - Trung bình 0
  • 1
  • 2
  • 3
  • 4
  • 5
[MV] Mùa Gió Rét - Akira Phan--Mediafire
#1
[INDENT] [Image: muagioretakiraphanupbyhoangtuyentruyenky...815530.jpg]

[Image: info.png]

Trích dẫn:Format : MPEG-4
Format profile : Base Media / Version 2
Codec ID : mp42
File size : 72.7 MiB
Duration : 4mn 46s
Overall bit rate : 2 130 Kbps
Encoded date : UTC 2010-08-04 15:37:30
Tagged date : UTC 2010-08-04 15:37:30
gsst : 0
gstd : 286073
gssd : B71ABFD48HH1299433581824742
gshh : v23.lscache1.c.youtube.com

Video
ID : 1
Format : AVC
Format/Info : Advanced Video Codec
Format profile : High@L3.1
Format settings, CABAC : No
Format settings, ReFrames : 1 frame
Codec ID : avc1
Codec ID/Info : Advanced Video Coding
Duration : 4mn 46s
Bit rate mode : Variable
Bit rate : 1 997 Kbps
Maximum bit rate : 3 810 Kbps
Width : 1 280 pixels
Height : 720 pixels
Display aspect ratio : 16:9
Frame rate mode : Variable
Frame rate : 23.976 fps
Original frame rate : 24.000 fps
Minimum frame rate : 17.241 fps
Maximum frame rate : 24.390 fps
Color space : YUV
Chroma subsampling : 4:2:0
Bit depth : 8 bits
Scan type : Progressive
Bits/(Pixel*Frame) : 0.090
Stream size : 68.1 MiB (94%)
Tagged date : UTC 2010-08-04 15:37:47

Audio
ID : 2
Format : AAC
Format/Info : Advanced Audio Codec
Format profile : LC
Codec ID : 40
Duration : 4mn 46s
Bit rate mode : Variable
Bit rate : 128 Kbps
Maximum bit rate : 159 Kbps
Channel(s) : 2 channels
Channel positions : Front: L R
Sampling rate : 44.1 KHz
Compression mode : Lossy
Stream size : 4.36 MiB (6%)
Title : © 2007 Google Inc. v08.13.2007.
Encoded date : UTC 2010-08-04 15:37:41
Tagged date : UTC 2010-08-04 15:37:47


[/INDENT]

  Trả lời


Đi tới chuyên mục:


Thành viên đang xem chủ đề: 1 Khách