[MV]Vì một lý do - Nam Cường --Mediafire



  • 0 Vote(s) - Trung bình 0
  • 1
  • 2
  • 3
  • 4
  • 5
[MV]Vì một lý do - Nam Cường --Mediafire
#1
[Image: 78f9af8d-956d-49e3-ac6a-95393bdf9cdf.jpg]

[Image: info.png]
Format : MPEG-4
Format profile : Base Media / Version 2
Codec ID : mp42
File size : 86.2 MiB
Duration : 4mn 38s
Overall bit rate : 2 599 Kbps

gsst : 0
gstd : 278305
gssd : B71ABFC46HH1299433653717293
gshh : v3.lscache1.c.youtube.com

Video
ID : 1
Format : AVC
Format/Info : Advanced Video Codec
Format profile : High@L3.1
Format settings, CABAC : Yes
Format settings, ReFrames : 1 frame
Codec ID : avc1
Codec ID/Info : Advanced Video Coding
Duration : 4mn 38s
Bit rate mode : Variable
Bit rate : 2 465 Kbps
Maximum bit rate : 5 039 Kbps
Width : 1 280 pixels
Height : 720 pixels
Display aspect ratio : 16:9
Frame rate mode : Variable
Frame rate : 29.970 fps
Minimum frame rate : 29.412 fps
Maximum frame rate : 200.000 fps
Color space : YUV
Chroma subsampling : 4:2:0
Bit depth : 8 bits
Scan type : Progressive
Bits/(Pixel*Frame) : 0.089
Stream size : 81.8 MiB (95%)


Audio
ID : 2
Format : AAC
Format/Info : Advanced Audio Codec
Format profile : LC
Codec ID : 40
Duration : 4mn 38s
Bit rate mode : Variable
Bit rate : 128 Kbps
Maximum bit rate : 163 Kbps
Channel(s) : 2 channels
Channel positions : Front: L R
Sampling rate : 44.1 KHz
Compression mode : Lossy
Stream size : 4.24 MiB (5%)
Title : © 2007 Google Inc. v08.13.2007.

[Image: j5w844jpg.gif]
[Image: downb.png]
Trích dẫn:

Pass unrar: truyenky.vn


  Trả lời


Đi tới chuyên mục:


Thành viên đang xem chủ đề: 1 Khách