[MV] Aaron_s Party (Come Get It) - Aaron carter- Mediafire

Đánh giá chủ đề:
  • 0 Vote(s) - Trung bình 0
  • 1
  • 2
  • 3
  • 4
  • 5
[MV] Aaron_s Party (Come Get It) - Aaron carter- Mediafire
#1
[INDENT] [Image: 66249947131128225123.jpg]

[Image: 37819814190473497446.png]

Format : MPEG-4
Format profile : Base Media
Codec ID : isom
File size : 36.3 MiB
Duration : 3mn 24s
Overall bit rate : 1 488 Kbps
Writing application : Lavf52.32.0

Video
ID : 1
Format : AVC
Format/Info : Advanced Video Codec
Format profile : Main@L3.0
Format settings, CABAC : Yes
Format settings, ReFrames : 1 frame
Codec ID : avc1
Codec ID/Info : Advanced Video Coding
Duration : 3mn 24s
Bit rate mode : Variable
Bit rate : 1 302 Kbps
Width : 640 pixels
Height : 480 pixels
Display aspect ratio : 4:3
Frame rate mode : Constant
Frame rate : 23.976 fps
Color space : YUV
Chroma subsampling : 4:2:0
Bit depth : 8 bits
Scan type : Progressive
Bits/(Pixel*Frame) : 0.177
Stream size : 31.8 MiB (87%)
Tagged date : UTC 2011-03-13 0403

Audio
ID : 2
Format : AAC
Format/Info : Advanced Audio Codec
Format profile : LC
Codec ID : 40
Duration : 3mn 24s
Bit rate mode : Variable
Bit rate : 128 Kbps
Channel(s) : 2 channels
Channel positions : Front: L R
Sampling rate : 44.1 KHz
Compression mode : Lossy
Stream size : 3.13 MiB (9%)
Tagged date : UTC 2011-03-13 0403



[Image: 53157584375962780913.gif]
[Image: 33467297648003810470.png]

Trích dẫn:



Pass unrar: truyenky.vn
[/INDENT]


Trả lời


Bookmarks

Đi tới chuyên mục:


Thành viên đang xem chủ đề: 1 Khách