[MF] Thanh Tâm (Tâm Tít) - Nhắc lại trong nỗi nhớ [720.x264.ac3]



  • 0 Vote(s) - Trung bình 0
  • 1
  • 2
  • 3
  • 4
  • 5
[MF] Thanh Tâm (Tâm Tít) - Nhắc lại trong nỗi nhớ [720.x264.ac3]
#1
[Image: thanhtamtamtitnhaclaitr.jpg]

Trích dẫn:General
Unique ID : 195107380223063094921805774874007229985 (0x92C850893FC1CEE6A82E4C953AA6D621)

Format : Matroska
File size : 126 MiB
Duration : 3mn 34s
Overall bit rate : 4 951 Kbps
Encoded date : UTC 2011-03-14 16:06:10
Writing application : mkvmerge v2.9.8 ('C'est le bon') built on Aug 13 2009 12:49:06
Writing library : libebml v0.7.7 + libmatroska v0.8.1

Video
ID : 1
Format : AVC
Format/Info : Advanced Video Codec
Format profile : High@L3.1
Format settings, CABAC : Yes
Format settings, ReFrames : 4 frames
Codec ID : V_MPEG4/ISO/AVC
Duration : 3mn 34s
Bit rate : 4 499 Kbps
Width : 1 280 pixels
Height : 720 pixels
Display aspect ratio : 16:9
Frame rate : 25.000 fps
Color space : YUV
Chroma subsampling : 4:2:0
Bit depth : 8 bits
Scan type : Progressive
Bits/(Pixel*Frame) : 0.195
Stream size : 113 MiB (89%)
Title : Namkent@HDvietnam.com | Thanh Tam (Tam Tit) - Nhac lai trong noi nho
Writing library : x264 core 114 r1913 5fd3dce
Encoding settings : cabac=1 / ref=3 / deblock=1:0:0 / analyse=0x3:0x113 / me=hex / subme=7 / psy=1 / psy_rd=1.00:0.00 / mixed_ref=1 / me_range=16 / chroma_me=1 / trellis=1 / 8x8dct=1 / cqm=0 / deadzone=21,11 / fast_pskip=1 / chroma_qp_offset=-2 / threads=3 / sliced_threads=0 / nr=0 / decimate=1 / interlaced=0 / constrained_intra=0 / bframes=3 / b_pyramid=2 / b_adapt=1 / b_bias=0 / direct=1 / weightb=1 / open_gop=0 / weightp=2 / keyint=250 / keyint_min=25 / scenecut=40 / intra_refresh=0 / rc_lookahead=40 / rc=2pass / mbtree=1 / bitrate=4499 / ratetol=1.0 / qcomp=0.60 / qpmin=0 / qpmax=69 / qpstep=4 / cplxblur=20.0 / qblur=0.5 / ip_ratio=1.40 / aq=1:1.00

Audio
ID : 2
Format : AC-3
Format/Info : Audio Coding 3
Mode extension : CM (complete main)
Codec ID : A_AC3
Duration : 3mn 34s
Bit rate mode : Constant
Bit rate : 448 Kbps
Channel(s) : 3 channels
Channel positions : Front: L R, Side: C
Sampling rate : 48.0 KHz
Bit depth : 16 bits
Compression mode : Lossy
Stream size : 11.4 MiB (9%)
Title : Namkent@HDvietnam.com | Thanh Tam (Tam Tit) - Nhac lai trong noi nho

[Image: mediafire_logo.png]
Download :
Code:
[url]http://adf.ly/pMj8[/url]


Hướng dẫn : nhấn vào link trên, đợi 5s, rồi nhấn vào SKIP AD [Image: skip_ad_button2.png] ở góc trên bến phải.
  Trả lời


Đi tới chuyên mục:


Thành viên đang xem chủ đề: 1 Khách