[MV] Vẽ Lại Phút Giây Anh Gặp Em - Akira Phan- Mediafire



  • 0 Vote(s) - Trung bình 0
  • 1
  • 2
  • 3
  • 4
  • 5
[MV] Vẽ Lại Phút Giây Anh Gặp Em - Akira Phan- Mediafire
#1
[Image: 33923966005049184298.jpg][Image: 37819814190473497446.png]
Trích dẫn:Format : MPEG-4
Format profile : Base Media
Codec ID : isom
File size : 24.9 MiB
Duration : 5mn 9s
Overall bit rate : 673 Kbps
Writing application : Lavf52.32.0

Video
ID : 1
Format : AVC
Format/Info : Advanced Video Codec
Format profile : Main@L3.0
Format settings, CABAC : Yes
Format settings, ReFrames : 1 frame
Codec ID : avc1
Codec ID/Info : Advanced Video Coding
Duration : 5mn 9s
Bit rate mode : Variable
Bit rate : 512 Kbps
Width : 640 pixels
Height : 356 pixels
Display aspect ratio : 16:9
Frame rate mode : Variable
Frame rate : 24.965 fps
Original frame rate : 25.000 fps
Minimum frame rate : 5.000 fps
Maximum frame rate : 25.000 fps
Color space : YUV
Chroma subsampling : 4:2:0
Bit depth : 8 bits
Scan type : Progressive
Bits/(Pixel*Frame) : 0.090
Stream size : 18.9 MiB (76%)
Language : Vietnamese
Tagged date : UTC 2011-03-13 04:24:19

Audio
ID : 2
Format : AAC
Format/Info : Advanced Audio Codec
Format profile : LC
Codec ID : 40
Duration : 5mn 9s
Bit rate mode : Variable
Bit rate : 128 Kbps
Channel(s) : 2 channels
Channel positions : Front: L R
Sampling rate : 44.1 KHz
Compression mode : Lossy
Stream size : 4.73 MiB (19%)
Language : Vietnamese
Tagged date : UTC 2011-03-13 04:24:19
  Trả lời


Đi tới chuyên mục:


Thành viên đang xem chủ đề: 1 Khách