[MV] Đan Nguyên- Cỏ Úa- Mediafire

Đánh giá chủ đề:
  • 0 Vote(s) - Trung bình 0
  • 1
  • 2
  • 3
  • 4
  • 5
[MV] Đan Nguyên- Cỏ Úa- Mediafire
#1
[Image: i11562_dan-nguyen-co-ua-up-by-hoangtuyen...41.56-.jpg]

[Image: 37819814190473497446.png]

Format : Matroska
File size : 264 MiB
Duration : 4mn 22s
Overall bit rate : 8 450 Kbps
Encoded date : UTC 2010-07-18 05:24:02
Writing application : mkvmerge v4.1.1 ('Bouncin' Back') built on Jul 3 2010 22:54:08
Writing library : libebml v1.0.0 + libmatroska v1.0.0

Video
ID : 1
Format : MPEG Video
Format version : Version 2
Format profile : Main@Main
Format settings, BVOP : No
Format settings, Matrix : Default
Codec ID : V_MPEG2
Codec ID/Info : MPEG 1 or 2 Video
Duration : 4mn 22s
Bit rate mode : Constant
Bit rate : 8 000 Kbps
Width : 720 pixels
Height : 480 pixels
Display aspect ratio : 16:9
Original display aspect ratio : 16:9
Frame rate : 59.940 fps
Original frame rate : 29.970 fps
Standard : NTSC
Color space : YUV
Chroma subsampling : 4:2:0
Bit depth : 8 bits
Scan type : Interlaced
Scan order : Top Field First
Compression mode : Lossy
Bits/(Pixel*Frame) : 0.386
Stream size : 245 MiB (93%)

Audio
ID : 2
Format : AC-3
Format/Info : Audio Coding 3
Mode extension : CM (complete main)
Muxing mode : Header stripping
Codec ID : A_AC3
Duration : 4mn 22s
Bit rate mode : Constant
Bit rate : 448 Kbps
Channel(s) : 6 channels
Channel positions : Front: L C R, Side: L R, LFE
Sampling rate : 48.0 KHz
Bit depth : 16 bits
Compression mode : Lossy
Delay relative to video : 4ms
Stream size : 14.0 MiB (5%)



[Image: 53157584375962780913.gif]
[Image: 33467297648003810470.png]
Trích dẫn:http://www.mediafire.com/?i6h8g61oen9ac




Pass Join : truyenky.vn
Trả lời


Bookmarks

Đi tới chuyên mục:


Thành viên đang xem chủ đề: 1 Khách