[MF][MV] Brave Girls - Do You Know - Brave Girls

Đánh giá chủ đề:
  • 0 Vote(s) - Trung bình 0
  • 1
  • 2
  • 3
  • 4
  • 5
[MF][MV] Brave Girls - Do You Know - Brave Girls
#1
[Image: i32509_brave-girls-do-you-know-brave-gir...00.29-.jpg]

[Image: 37819814190473497446.png]

Format : MPEG-4
Format profile : Base Media
Codec ID : isom
File size : 25.5 MiB
Duration : 4mn 2s
Overall bit rate : 883 Kbps
Writing application : Lavf52.32.0

Video
ID : 1
Format : AVC
Format/Info : Advanced Video Codec
Format profile : Main@L3.0
Format settings, CABAC : Yes
Format settings, ReFrames : 1 frame
Codec ID : avc1
Codec ID/Info : Advanced Video Coding
Duration : 4mn 2s
Duration_LastFrame : -31ms
Bit rate mode : Variable
Bit rate : 712 Kbps
Width : 640 pixels
Height : 360 pixels
Display aspect ratio : 16:9
Frame rate mode : Constant
Frame rate : 29.917 fps
Color space : YUV
Chroma subsampling : 4:2:0
Bit depth : 8 bits
Scan type : Progressive
Bits/(Pixel*Frame) : 0.103
Stream size : 20.6 MiB (81%)
Tagged date : UTC 2011-04-07 06:47:28

Audio
ID : 2
Format : AAC
Format/Info : Advanced Audio Codec
Format profile : LC
Codec ID : 40
Duration : 4mn 2s
Bit rate mode : Variable
Bit rate : 128 Kbps
Channel(s) : 2 channels
Channel positions : Front: L R
Sampling rate : 44.1 KHz
Compression mode : Lossy
Stream size : 3.70 MiB (15%)
Tagged date : UTC 2011-04-07 06:47:28



Trả lời


Bookmarks

Đi tới chuyên mục:


Thành viên đang xem chủ đề: 1 Khách