[MF][MV] Can_t Nobody (English Version) - 2NE1

Đánh giá chủ đề:
  • 0 Vote(s) - Trung bình 0
  • 1
  • 2
  • 3
  • 4
  • 5
[MF][MV] Can_t Nobody (English Version) - 2NE1
#1
[Image: i32511_can-t-nobody-english-version-2ne1...07.06-.jpg]

[Image: 37819814190473497446.png]
Format : MPEG-4
Format profile : Base Media
Codec ID : isom
File size : 36.9 MiB
Duration : 3mn 33s
Overall bit rate : 1 451 Kbps
Writing application : Lavf52.32.0

Video
ID : 1
Format : AVC
Format/Info : Advanced Video Codec
Format profile : Main@L3.1
Format settings, CABAC : Yes
Format settings, ReFrames : 1 frame
Codec ID : avc1
Codec ID/Info : Advanced Video Coding
Duration : 3mn 33s
Bit rate mode : Variable
Bit rate : 1 264 Kbps
Width : 640 pixels
Height : 360 pixels
Display aspect ratio : 16:9
Frame rate mode : Variable
Frame rate : 29.938 fps
Original frame rate : 59.750 fps
Minimum frame rate : 19.917 fps
Maximum frame rate : 239.000 fps
Color space : YUV
Chroma subsampling : 4:2:0
Bit depth : 8 bits
Scan type : Progressive
Bits/(Pixel*Frame) : 0.183
Stream size : 32.1 MiB (87%)
Tagged date : UTC 2011-04-07 02:17:30

Audio
ID : 2
Format : AAC
Format/Info : Advanced Audio Codec
Format profile : LC
Codec ID : 40
Duration : 3mn 32s
Bit rate mode : Variable
Bit rate : 128 Kbps
Channel(s) : 2 channels
Channel positions : Front: L R
Sampling rate : 44.1 KHz
Compression mode : Lossy
Stream size : 3.24 MiB (9%)
Tagged date : UTC 2011-04-07 02:17:30




[Image: 53157584375962780913.gif]
[Image: 33467297648003810470.png]
Pass unrar: truyenky.vn

http://www.mediafire.com/?a0hydgd4k33nmzk
Trả lời


Bookmarks

Đi tới chuyên mục:


Thành viên đang xem chủ đề: 1 Khách